#TITLE:Going Nowhere;
#SUBTITLE:;
#ARTIST:Norther;
#TITLETRANSLIT:;
#SUBTITLETRANSLIT:;
#ARTISTTRANSLIT:;
#CREDIT:RyouYami;
#BANNER:Going Nowhere.jpg;
#BACKGROUND:goingnowherebg.jpg;
#LYRICSPATH:;
#CDTITLE:Ryou.png;
#MUSIC:Going Nowhere.mp3;
#OFFSET:0.000;
#SAMPLESTART:100.000;
#SAMPLELENGTH:12.000;
#SELECTABLE:YES;
#BPMS:0.000=200.260;
#STOPS:;
#BGCHANGES:;
// cache tags:
#FIRSTBEAT:1.000;
#LASTBEAT:862.250;
#SONGFILENAME:Songs/nhac/Going Nowhere/Going Nowhere.sm;
#HASMUSIC:1;
#HASBANNER:1;
#MUSICLENGTH:261.928;
// end cache tags

//---------------dance-single - ----------------
#NOTES:
     dance-single:
     :
     Challenge:
     15:
     1.000,1.000,1.000,0.202,1.000,2577.000,564.000,53.000,0.000,82.000:
0000
0000
0000
0000
1001
0000
0110
0000
0000
0000
1000
0000
1000
0000
0000
1000
,
0000
1000
0000
0000
0010
0000
0010
0000
0000
1000
0000
1000
0000
0000
0100
0000
,
0100
0000
0000
0001
0000
0001
0000
0000
1000
0000
1000
0000
0000
0010
0000
0010
,
0000
0000
1000
0000
1000
0000
0000
1000
0000
1000
0000
0000
0100
0000
0100
0000
,
0000
0000
0000
0000
1001
0000
0000
0000
0000
0000
0000
0000
0110
0000
0000
0000
0000
0000
0000
0000
1100
0000
0000
0000
0000
0000
0000
0000
0011
0000
0000
0000
0000
0000
0000
0000
0000
0000
0000
0000
0000
0000
0000
1000
0000
0000
0000
1000
0000
0000
0000
0000
0000
0000
0000
0000
0000
0000
0010
0000
0000
0000
0010
0000
,
0000
0000
0000
0000
0000
0000
0000
0000
0000
0000
0000
0000
0000
0100
0000
0000
0000
0000
0000
0000
0000
0100
0000
0000
0000
0000
0000
0000
0000
0000
0000
0000
0000
0000
0000
0000
0001
0000
0000
0000
0000
0000
0000
0000
0000
0000
0001
0000
0000
0000
0000
0000
0000
0000
0000
0000
0000
0000
0000
0000
0000
0000
0000
0000
,
0000
1000
0000
0000
0000
1000
0000
0000
0000
0000
0010
0000
0000
0000
0010
0000
0000
0000
0000
0000
0000
0000
0000
0000
0000
0000
0100
0000
0000
0000
0100
0000
0000
0000
0000
0000
0000
0000
0000
0000
1001
0000
0000
0000
0010
0000
0000
0000
0100
0000
0000
0000
1000
0000
0000
0000
0100
0000
0000
0000
0010
0000
0000
0000
,
1001
0100
0010
1001
0010
0100
1000
0100
0010
0100
1011
0100
0010
0001
0010
0100
,
1001
0100
0010
0001
0010
0101
0010
0101
0010
0100
0010
0100
1001
0000
1010
0000
,
0110
1010
1110
1010
0110
0101
0111
1110
,
1101
1011
0101
0011
0101
0110
1010
0110
,
1010
1100
1010
1110
0101
0111
0011
0110
,
1100
0110
1010
0101
1010
0110
0011
0110
,
0011
0011
1010
1110
0101
0111
1010
0110
,
1100
0110
0101
1010
0101
0111
1010
1110
,
1101
1011
0110
0001
0001
0111
0100
0111
,
0100
1100
0110
0011
0010
0010
0010
0010
,
0100
0010
1000
0010
0100
1000
0100
0010
0100
1000
0001
0010
0001
0100
0010
0001
,
1000
0001
0010
0100
1000
0001
0100
0010
0001
1000
0001
0010
0100
1000
0010
0100
,
1000
0001
0010
0100
0001
0010
0100
1000
1000
0010
0001
0100
0010
0001
1000
0010
,
0100
1000
0001
1000
0100
0010
0001
1000
0010
0100
0010
0001
1000
0010
0100
1000
,
0100
0010
1000
0001
0010
0001
0100
0001
0010
0100
1000
0100
0010
0100
1000
0100
,
0001
1000
0100
0010
0001
0010
1000
0001
0010
0100
0010
0001
1000
0100
1000
0100
,
1000
0100
1000
0100
1000
0100
0010
0100
0010
0001
0010
0001
0010
0100
1000
0001
,
0010
0100
1000
1000
0010
0100
1000
0100
0010
0010
1000
0100
0010
0100
1000
1000
,
0001
0010
0100
0010
0001
0001
1000
0100
0010
0001
0001
0010
0010
0100
0100
0001
,
0001
1000
1000
0100
0100
0010
0010
0001
0001
0010
1010
0000
1110
0000
0100
0000
,
1110
0000
0100
0100
0001
0001
1000
1000
0010
0010
1000
1000
0100
0100
1000
1000
,
0001
0001
0010
0010
0001
0001
0010
1000
0100
0000
0100
0000
1001
0000
1011
0000
,
1101
1001
1111
0100
0100
0100
1100
1000
,
1100
0100
1100
0011
0001
0011
0010
0011
,
0001
0011
1100
0110
0101
0110
1010
0110
,
0101
0000
0110
0000
1010
0000
0001
0110
0001
0110
0001
0110
1000
0110
1000
0110
,
1000
0000
0110
0000
0001
0000
0010
0000
0100
0000
0010
1000
0001
0100
0010
1000
0000
0100
0001
0000
0010
0000
0100
0000
1010
0000
0100
0000
0010
0000
0100
0000
,
0001
0010
1000
0101
1000
0101
1000
0101
1000
0011
1100
0001
1010
0001
1010
0001
,
1010
0101
1010
0101
1010
0001
1000
0001
1000
0001
0100
0010
0001
1000
0100
0010
,
0001
1000
0100
0010
0001
0001
0010
0100
1000
0001
0010
0100
0001
0010
0100
1000
,
1000
0000
0000
0100
0000
0000
0010
0000
0000
0001
0000
0000
1000
0000
0000
0100
0000
0000
0010
0000
0000
1000
0000
0000
0100
0000
0000
0010
0000
0000
0001
0000
0000
0010
0000
0000
0100
0000
0000
0010
0000
0000
0001
0000
1000
0000
0000
0000
,
0100
1001
0100
0010
0001
1010
0100
0010
0001
1010
0100
1000
,
0100
0010
0001
0001
1010
0100
1000
0100
0010
0101
1010
0001
,
1010
0100
0010
0001
1010
0100
0010
0001
1101
0010
0100
1000
,
0100
0010
0100
1011
0100
0010
0001
0010
0100
1011
0100
0010
,
0100
1011
0100
0010
0101
0010
0100
1010
0001
0010
0100
1011
,
0100
0000
0000
0000
0010
0000
0000
0000
1001
0000
0000
0000
0010
0000
0000
0000
0100
0000
0000
0000
1011
0000
0000
0000
0100
0000
0000
0000
0010
0000
0000
0000
0001
0000
0000
0000
0001
0000
0000
0010
0000
0000
0100
0000
0000
1000
0000
0000
,
0111
1000
0100
0010
0001
1000
0100
0010
0001
1110
0001
0010
0100
1000
0001
0010
,
0100
1000
0111
1000
0100
0010
0001
0010
0100
0010
0001
0010
0100
1000
0100
0010
,
0100
1000
0100
0010
0001
0010
0100
1000
0100
0010
0001
0010
0100
1000
0100
0100
,
0010
0000
0000
0010
0000
0000
0000
0000
1010
0000
0000
0000
0101
0000
0000
0000
1010
0000
0000
0000
0100
0000
0000
0000
0010
0000
0000
0000
0001
0000
0000
0000
0010
0000
0000
0000
0100
0000
0000
0000
0010
0000
0000
0000
1101
0000
0000
0000
,
0010
0101
1010
0001
1010
0101
0010
1001
0100
0010
0100
0011
,
1100
0011
1100
0020
0100
1000
0100
0001
0001
0100
1000
1000
,
0100
0031
0200
1000
0010
0010
0001
0001
0010
1000
0010
0001
,
0010
0001
1000
0010
0001
0010
1300
0010
0100
1000
0100
0010
,
1101
0010
0100
1000
1001
0100
0010
0001
1001
0010
0100
1000
,
1001
0000
0000
0000
0100
0000
1000
0000
0000
0100
0000
0000
0010
0000
0000
0001
0000
0000
0010
0000
0000
0100
0000
0000
0010
0000
0000
0001
0000
0000
1010
0000
0000
0100
0000
0000
0010
0000
0000
0001
0000
0000
1010
0000
0000
0100
0000
0000
,
0010
0001
1010
0100
0010
0001
0001
0010
0100
1000
0101
0010
0100
1000
0101
0010
,
0100
1000
0101
0010
0100
1000
0100
0010
0101
1000
0100
0010
0101
0010
0101
1000
,
0100
0010
0001
1100
0001
1100
0001
0010
0100
1000
0101
1000
0101
1010
0101
1010
,
0100
0010
0001
0010
0100
1000
0100
0010
0100
1000
0001
0010
0100
1000
0001
0010
,
0100
0001
0010
1000
0100
0010
1000
0100
0001
0010
0100
1000
0001
0100
0010
0001
,
1000
0010
0100
1000
0011
1000
0100
0010
0001
0110
0001
0010
1001
0100
0010
0100
,
1000
0001
0010
0100
1000
0010
0100
1000
0001
0010
0001
1000
0100
0010
0100
1000
,
0001
1000
0001
1000
0001
0010
0100
0010
0001
1000
0001
1000
0100
0010
0001
0001
,
1000
0100
0010
0100
1000
1000
0010
0001
0010
0100
0100
0001
0010
0001
0001
1000
,
0100
1000
1000
0010
0100
1000
0100
0010
0010
1000
0000
1000
0000
1000
0000
1100
,
0000
0100
0000
0100
0000
0110
0000
0010
0000
0011
0000
0001
0000
0011
0000
0110
,
0000
0011
0000
0110
0000
1100
0000
0101
0000
1010
0000
0101
0000
1010
0000
1100
,
0000
1010
0000
0110
0000
0101
0000
0111
0000
1010
0000
1100
0000
0110
0000
1010
,
0000
0111
0000
1000
0100
0010
0100
1000
0001
0010
0001
0000
1010
0000
0101
0000
,
1010
1100
0110
0011
0110
1100
0110
0101
,
1010
1100
0110
0011
1010
1001
0111
1010
,
0100
1010
0110
0010
0011
0100
1100
0100
,
0101
0001
1101
0100
0110
1100
0110
0011
,
0110
1100
0010
0101
0010
0101
0010
0101
,
1010
0100
1001
0100
0100
1000
1000
0010
,
0010
0100
1011
1101
0100
0110
1100
0101
,
0011
0101
0110
1010
1100
0011
1100
0101
,
1010
0100
0100
0110
1010
0010
0010
0110
,
0010
0011
0001
0011
0100
0011
0100
1010
,
0001
0110
0011
1010
1100
0110
0101
0110
,
1000
0100
1000
0010
0100
1001
0110
1010
0100
0010
0100
1001
,
0010
0100
0001
0010
0101
0010
1001
0100
1000
0010
0100
1000
,
0100
0010
0001
0020
0130
2000
3210
0302
1013
0200
2300
3010
,
0200
0310
2000
3100
0002
0103
0020
1031
0200
0310
2000
3010
,
0002
0103
0010
0100
0010
0001
1000
0100
1010
0010
0100
1000
,
0101
0010
0100
1000
0101
0010
0100
1000
0101
0010
0100
0010
,
0001
1010
0100
0010
0001
1010
0100
0010
0101
1010
0100
1010
,
0101
0010
0100
0010
0001
1100
0001
0110
0001
1010
0101
0010
,
0100
0010
0001
0001
1000
0100
1000
0010
0100
0010
0001
0100
,
0010
0100
1001
0010
0100
0010
1001
0100
1010
0001
0100
0010
,
0001
0100
0010
0100
1000
0100
0010
0100
1000
0001
0010
0100
,
0010
0001
1000
0100
0010
0100
1000
0001
0010
0100
1000
1000
,
0100
0010
0001
0001
0010
0100
1000
1011
0100
0010
0001
1101
,
0010
0100
1010
0100
0010
0100
1010
0001
0010
0100
0010
0001
,
1000
0000
0110
0000
0000
0000
0000
0000
0000
0000
0000
0000
1000
0000
0000
0000
0000
0000
0000
0000
0000
0000
0000
0010
,
0000
0000
0100
0000
,
0001
0000
1000
0000
,
0000
0010
0000
0000
0000
0000
0000
0000
0000
0000
0000
0000
0000
0000
0100
0000
0000
0000
0000
0000
0000
0000
0000
0000
,
0000
0000
1001
0000
0000
0000
1001
0000
0000
0000
0000
0000
0110
0000
0000
0000
0110
0000
0000
0000
0000
0000
0000
1001
,
0000
0000
1001
0000
0000
0000
0000
0000
0110
0000
0000
0110
0000
0000
0000
0000
0000
0000
1001
0000
0000
1001
0000
0000
,
0000
0000
0000
0110
0000
0000
0110
0000
0000
0000
0000
0000
0000
1001
0000
0000
1001
0000
0000
0000
0000
0000
0110
0000
,
0000
0110
0000
0000
0000
0000
0000
1000
0000
0000
1000
0000
0000
0000
0000
0000
0000
0001
0000
0000
1010
0000
0000
0001
,
0000
0000
0000
1010
0000
0000
0000
0000
0101
0000
0000
0000
0101
0000
0000
0000
0000
0000
1010
0000
0000
1010
0000
0000
,
0000
0000
0000
1111
0000
0000
0000
0110
0000
0000
0000
0000
0000
0100
0000
0000
0000
0111
0000
0000
0000
0001
0000
0000
,
0000
0111
0000
0000
0000
0000
0000
1100
0000
0000
1100
0000
0000
0000
0000
0000
0000
0110
0000
0000
0110
0000
0000
0000
,
0000
0000
0000
0011
0000
0000
0011
0000
0000
0000
0000
0111
0000
0000
0111
0000
0000
0000
0000
0000
0000
1110
0000
0000
,
0111
0000
0000
1110
0000
0000
0111
0000
0000
0000
0000
0000
0000
1010
0000
0000
1001
0000
0000
0000
0000
0000
0000
0101
,
0000
0000
1001
0000
0000
0000
0000
0000
0000
1110
0000
0000
0111
0000
0000
0000
0000
0000
1001
0000
0000
1001
0000
0000
,
0000
0000
0000
0110
0000
0000
0110
0000
0000
0000
0000
0000
1001
0000
0000
1001
0000
0000
0000
0000
0000
0000
0110
0000
,
0000
0110
0000
0000
0000
0000
0000
1001
0000
0000
1001
0000
0000
0000
0000
0000
0110
0000
0000
0110
0000
0000
0000
0000
,
0000
0000
0001
0000
0000
0011
0000
0000
0001
0000
0000
0011
0000
0000
0000
0000
0000
0000
0000
0001
0000
0000
0001
0000
,
0000
0000
0000
0000
1010
0000
0000
1010
0000
0000
0000
0000
0000
0000
0101
0000
0000
0101
0000
0000
0000
0000
0000
1010
,
0000
0000
1010
0000
0000
0000
0000
0000
0100
0000
0000
0100
0000
0000
0000
0000
0000
0000
0010
0000
0000
0010
0000
0000
,
0000
0000
0000
1001
0000
0000
1010
0000
0000
0000
0000
0000
0000
1101
0000
0000
1011
0000
0000
0000
0000
0000
0100
0000
,
0000
0100
0000
0000
0000
0000
0000
0000
1001
0000
0110
0000
0000
0000
0000
0110
0000
1001
0000
0000
0000
0000
0000
0000
,
0110
0000
0000
0000
0110
0000
0000
0000
0000
0000
1001
0000
0000
1001
0000
0000
0000
0000
0000
0101
0000
0000
0101
0000
,
0000
0000
0000
1010
0000
0000
1010
0000
0000
0000
0000
0000
0000
0000
0101
0000
0000
0101
0000
0000
0000
0000
0000
1010
,
0000
0000
1010
0000
0000
0000
0000
0000
0000
0110
0000
0000
0110
0000
0000
0000
0000
0000
1010
0000
0000
1010
0000
0000
,
0000
0000
0101
0000
0000
0101
0000
0000
0000
0000
0000
0000
1000
0000
0000
0001
0000
0000
1000
0000
0000
0001
0000
0000
,
0000
0000
0000
0000
0000
0010
0000
0000
0000
0010
0000
0000
0000
0000
0000
0010
0000
0000
0000
0010
0000
0000
0000
0000
,
0010
0000
0000
0000
0010
0000
0000
0000
0000
0100
0000
0000
0000
0100
0000
0000
0000
0000
0100
0000
0000
0000
0100
0000
,
0000
0000
0000
0000
1000
0000
0000
1000
0000
0000
0000
0000
0000
0000
0010
0000
0000
0010
0000
0000
0000
0000
0000
0100
,
0000
0000
0100
0000
0000
0000
0000
0000
0001
0000
0000
0001
0000
0000
0000
0000
0000
0100
0000
0000
1010
0000
0000
0100
,
0000
0000
1010
0000
0000
0000
0000
0000
0000
0000
0010
0000
0000
0010
0000
0000
0000
0000
0000
0000
1000
0000
0000
1000
,
0000
0000
0000
0000
0000
0000
0001
0000
0000
0001
0000
0000
0000
0000
0000
0001
0000
0000
0000
0001
0000
0000
0000
0000
,
0000
0000
0001
0000
0000
0001
0000
0000
0000
0000
0100
0000
0000
0100
0000
0000
0000
0000
0000
0010
0000
0000
0000
0010
,
0000
0000
0000
0000
0000
0010
0000
0000
0000
0010
0000
0000
0000
0000
0010
0000
0000
0000
0010
0000
0000
0000
0000
0000
,
0010
0000
0000
0111
0000
0000
0010
0000
0000
0111
0000
0000
0000
0000
0000
0000
0100
0000
0000
0100
0000
0000
0000
0000
,
0000
0100
0000
0000
0100
0000
0000
0000
0000
0000
0100
0000
0000
0100
0000
0000
0000
0000
0000
0100
0000
0000
0100
0000
,
0000
0000
0000
0000
0000
0100
0000
0000
0100
0000
0000
0000
0000
0000
0000
0100
0000
0000
0100
0000
0000
0000
0000
0000
,
0010
0010
0000
0100
0100
0000
0010
0010
,
0000
0000
0000
0000
0000
0000
0000
0000
0000
0000
0000
0000
0000
0000
0000
0000
0000
0000
0000
0000
0000
0000
0000
0000
0000
0000
0000
0000
0000
0000
0000
0000
1000
0000
0000
0000
0000
0000
0000
0000
0000
0000
0000
0000
0000
0000
0000
0000
0000
0000
0000
0000
0000
0000
0000
0000
0001
0000
0000
0000
0000
0000
0000
0000
0000
0000
0000
0000
0000
0000
0000
0000
0000
0000
0000
0000
0000
0000
0000
0000
0100
0000
0000
0000
0000
0000
0000
0000
0000
0000
0000
0000
0000
0000
0000
0000
0000
0000
0000
0000
0000
0000
0000
0000
0000
1000
0000
0000
0000
0000
0000
0000
0000
0000
0000
0000
0000
0000
0000
0000
0000
0000
0000
0010
0000
0000
0000
0000
0000
0000
0000
0000
0000
0000
0000
0000
0000
0000
0000
0000
0000
0000
0000
0000
0100
0000
0000
0000
0000
0000
0000
0000
0000
0000
0000
0000
1000
0000
0000
0000
0000
0000
0000
0000
0000
0000
0000
0000
0100
0000
0000
0000
0000
0000
0000
0000
0000
0000
0000
0000
1000
0000
0000
0000
0000
0000
0000
0000
0000
0000
0000
0000
,
0100
1000
0010
0100
1000
0100
0010
1000
0010
1000
0010
0001
0010
1000
0010
0001
,
0010
1000
0010
0001
0100
0010
0001
0010
0100
0010
0001
1000
0100
0010
0100
1000
,
0001
0010
0100
1000
0100
0010
0100
1000
0001
0010
0001
0010
0100
0010
0001
0100
,
0010
0100
0100
1000
0100
0010
0100
0100
0010
0100
0010
0001
0001
0100
0010
0001
,
0010
0100
1000
0101
0010
0100
1000
0101
0010
1001
0010
0100
1010
0100
0010
0001
,
0010
0101
1000
0100
0010
0100
1000
0001
0010
0001
0100
0010
1001
0100
0010
1001
,
0100
0010
1001
0010
0100
1011
0100
0010
1101
0010
0100
1011
0100
0010
0001
1010
,
0001
1010
0001
1010
0001
1010
0001
0110
1000
0101
1000
0101
1000
0101
1000
0101
,
1000
0110
0001
0110
1000
0110
0001
0110
1000
0011
1000
0011
1000
0110
0001
1100
,
0001
1100
0001
0110
1000
0101
1010
0101
1010
0101
1010
0001
1100
0011
1100
0011
,
1100
0011
1100
0110
0001
1010
0001
1010
0101
1010
0100
0010
0100
1000
0001
0010
,
0100
0010
0001
0100
0010
0001
0010
0100
1000
1000
0100
0010
0001
0001
0010
0100
,
1000
1000
0100
0010
1101
0010
0100
1000
0100
0010
0100
1000
0001
0010
0100
0010
,
0001
0010
0001
0010
0001
0010
0001
0010
0001
0100
0001
0100
0001
0100
0001
0100
,
0001
0100
1000
0100
1000
0100
1000
0100
1000
0100
1000
0001
1000
0001
1000
0001
,
1000
0001
1000
0001
1000
0001
1000
0010
0100
0010
0100
0010
0100
0010
0100
0010
,
0100
0000
0000
0001
0000
0000
0100
0000
0000
0001
0000
0000
0100
0000
0000
0001
0000
0000
0010
0000
0000
0100
0000
0000
1000
0000
0000
0000
0000
0000
0000
0000
0000
0000
0100
0000
0000
0000
0000
0000
0000
0000
0000
0000
0000
0000
0000
0000
,
0010
0000
0000
0000
0000
0000
0010
0000
0000
0000
0000
0000
0000
1000
0000
0000
0000
0000
0000
0000
1000
0000
0000
0000
,
0000
0001
0000
0000
0000
0000
0000
0000
0001
0000
0000
0000
0000
0000
0100
0000
0000
0000
0000
0000
0000
0100
0000
0000
,
0000
0000
0000
0010
0000
0000
0000
0000
0000
0010
0000
0000
0000
0000
0000
0010
0000
0000
0000
0000
0000
0000
0100
0000
,
0000
0000
0000
0000
0000
0000
0000
0000
0000
0000
0000
0000
0000
0000
0000
0000
0010
0000
0000
0000
0000
0000
0000
0000
0000
0000
0000
0000
0000
0000
0000
0000
0100
0000
0000
0000
0000
0000
0000
0000
0000
0000
0000
0000
0000
0000
0000
0000
0000
0000
0000
0000
0000
0000
0000
0000
0000
0000
0000
0000
0000
0000
0000
0000
0020
0000
0000
0000
0000
0000
0000
0000
0000
0000
0000
0000
0000
0000
0000
0000
0000
0000
0000
0000
0000
0000
0000
0000
0000
0000
0000
0000
0000
0000
0000
0000
0030
0000
0000
0010
0000
0000
0000
0000
0000
0000
0000
0000
0000
0000
0000
0000
0000
0000
0000
0000
0000
0000
0000
0000
0000
0000
0000
0000
0000
0000
0000
0000
0000
0000
0000
0000
0000
0000
0000
0000
0000
0000
0000
0000
0000
0000
0000
0000
0000
0000
0000
0000
0000
0000
0000
0000
0000
0000
0000
0000
0000
0000
0000
0000
0000
0000
0000
0000
0000
0000
0000
0000
0010
0000
0000
0000
0000
0000
0000
0000
0000
0000
0000
0000
0100
0000
0000
0000
0000
0000
0000
0000
0000
0000
0000
0000
,
1000
0100
0010
0001
0010
0100
1000
1000
0100
0010
0001
0001
0010
0100
1000
1000
,
0100
0010
0001
0010
0100
1000
0100
0010
0001
0010
0100
1000
0001
0010
0100
1000
,
0001
0010
0100
1000
0100
0010
0001
1000
0100
0010
0001
1000
0100
0010
0001
0010
,
0100
1000
0100
0010
0001
0010
0100
1000
0001
0010
0100
1000
0001
0010
0100
1000
,
0100
1001
0100
1001
0100
1001
0100
1001
0100
0001
0100
1001
0010
1100
0010
1100
,
0010
1100
0010
0101
0010
1101
0010
0101
0010
1101
0010
0100
0010
0101
0010
1001
,
0100
1010
0100
1010
0100
1010
0100
0011
0100
0011
1100
0011
1000
0110
0001
0110
,
1000
0110
0001
0110
1000
0110
1000
0110
1000
0110
1000
0110
1000
0110
0001
0110
,
0001
0110
0001
0110
0001
0110
0001
0110
0001
1010
0101
1010
0101
1010
0101
1010
,
0101
1010
0101
0010
1101
0010
0101
0010
1101
0010
0101
0010
0001
0100
1010
0100
,
1011
0100
1010
0100
1011
0100
0010
0001
0010
0001
0010
0001
0010
0001
0100
0001
,
0100
0001
0100
0001
0100
0010
1000
0010
1000
0010
1000
0010
1000
0010
1000
0010
,
1000
0010
1000
0010
1000
0100
1000
0100
0010
0010
1000
0100
0010
0010
0100
1000
,
0010
0001
0010
0100
0010
0001
0001
0100
1000
0100
0010
0100
1000
1000
0001
0001
,
0010
0010
0100
0010
0001
0010
0100
0100
0001
0001
0010
1000
1000
0100
0001
0001
,
0110
1001
0110
1001
0010
0100
1000
1000
0100
0010
0001
0001
0100
0000
0100
0000
,
0000
0000
0000
0000
0000
0000
0000
0000
0000
0000
0000
0000
0000
0000
0000
0000
0000
0000
0000
0000
0000
0000
0000
0000
0000
0000
0000
0000
0000
0000
0000
0000
0010
0000
0000
0000
0000
0000
0000
0000
0000
0000
0000
0000
0000
0000
0000
0000
0000
0000
0000
0000
0000
0000
0000
0000
0000
0000
0000
0000
0000
0000
0000
0000
0000
0000
0000
0000
0000
0000
0000
0000
0020
0000
0000
0000
0000
0000
0000
0000
0000
0000
0000
0000
0000
0000
0000
0000
0000
0000
0000
0000
0000
0000
0000
0000
0030
0000
0000
0010
0000
0000
0000
0000
0000
0000
0000
0000
0000
0000
0000
0000
0000
0000
0000
0000
0000
0000
0000
0000
0100
0000
0000
0000
0000
0000
0000
0000
0000
0000
0000
0000
1000
0000
0000
0000
0000
0000
0000
0000
0000
0000
0000
0000
0100
0000
0000
0000
0000
0000
0000
0000
0000
0000
0000
0000
1000
0000
0000
0000
0000
0000
0000
0000
0000
0000
0000
0000
0100
0000
0000
0000
0000
0000
0000
0000
0000
0000
0000
0000
1000
0000
0000
0000
0000
0000
0000
0000
0000
0000
0000
0000
,
0100
0001
0100
0001
0100
0001
0100
0001
1000
0001
1000
0001
0010
1000
0010
1000
,
0010
1000
0010
1000
0010
0001
0010
0001
0010
0001
0010
1000
0010
1000
0010
1000
,
0010
0100
0010
0100
0010
0100
0010
0100
0010
1101
0010
0100
0010
0100
0010
0100
,
0010
0001
0010
0001
0010
0001
0010
0001
1000
0001
1000
0001
1000
0001
1000
0001
,
1000
0001
0010
0001
0010
0001
0100
0001
0100
0001
0100
0001
0100
0001
1000
0001
,
1000
0001
1000
0001
1000
0001
1000
0010
1000
0010
1000
0010
1000
0010
1000
0010
,
0001
0100
0001
0100
0001
1010
0001
1010
0001
1010
0001
1010
0001
1010
0100
1010
,
0100
1010
0100
1000
0101
1000
0101
1000
0101
1000
0101
1000
0101
1000
0101
1000
,
0100
1000
0100
1000
0100
1000
0100
0010
0001
0100
0010
0001
0010
0100
1000
0001
,
0010
0100
0010
0001
1000
0100
0010
0100
1000
0002
0013
0200
0310
0200
1310
0002
,
0103
0002
1003
0020
1030
0200
0301
0020
1030
0200
0301
2000
3010
0002
1003
0200
,
0310
0002
1003
0200
1300
0002
0103
0002
0013
2000
3010
0200
1300
0200
0301
0020
,
1031
0200
1300
0102
2003
3100
0020
0130
0002
0103
0020
1031
0200
0310
0020
0130
,
0002
0013
2000
3100
0020
1031
0200
1310
0001
0010
0100
0010
1001
0010
0100
1001
,
0100
0010
1101
0010
0100
1011
0100
0010
1101
0010
0100
1000
0001
0010
0100
1000
,
0111
1000
0100
0010
0001
0010
0100
0001
0010
0100
1000
0001
0010
0100
1000
0100
,
0010
1001
0100
0010
0001
1000
0100
0010
0001
1110
0001
0010
0100
1000
0001
0010
,
0100
1000
0111
1000
0100
0010
0001
1000
0100
0010
0111
1000
0100
0010
0100
1010
,
0100
0010
0101
0010
0100
1000
1000
0100
0010
0001
1010
0101
0010
0001
1010
0100
,
1010
0101
0010
0001
0010
0100
1001
0100
0010
0100
1001
0100
0010
1001
0010
0100
,
1001
0100
0010
0100
1001
0100
0010
0001
1010
0100
0010
0001
1010
0100
0010
0001
,
0010
1000
0010
0001
0010
1000
0010
0001
0100
1000
0100
0001
0100
1000
0100
0001
,
0100
1000
0100
0001
0100
1000
0100
0001
0100
0010
0010
0100
0100
0010
0001
0010
,
1000
0010
0001
0010
1000
0010
0001
0010
1000
0010
0001
0010
1000
0100
0010
0100
,
1000
0001
0100
1000
0100
0010
1000
0100
1001
0010
0100
1000
0001
1000
0100
0010
,
0100
1001
0100
0010
0100
1000
0001
1000
0100
0010
0001
0110
0001
0010
0100
0001
,
0010
0100
1000
0110
1000
0100
0010
0001
1001
0010
0100
1000
1001
0100
0010
0001
,
1001
1000
0100
0010
0001
1001
1000
0100
0010
0001
1001
1000
0100
0010
0001
0001
,
0010
0100
1000
1001
0001
0010
0100
1000
1001
0010
0100
1000
1001
0001
0010
0100
,
1000
1000
0100
0010
0101
1001
0100
1010
0100
1001
0010
0100
1001
0100
0010
0001
,
0010
1000
0010
0100
1000
0100
0010
0100
0001
1000
0100
1000
0010
0100
1000
0001
,
1000
0100
0010
0001
1000
0010
0100
1000
0001
1000
0100
0010
0001
0100
0010
0001
,
1000
0100
0010
1000
0100
0010
0001
0001
0100
1000
0010
0100
1000
0001
0100
0010
,
0001
1000
0001
0010
0100
1000
0001
0100
0010
0100
1000
0001
0100
0010
0001
0010
,
0100
0001
1000
0100
1000
0010
1000
0100
0010
0001
0010
0100
0010
0001
0010
1000
,
0001
0010
0100
1000
0100
0001
1000
0100
0010
0100
1000
0001
0010
0001
0010
0001
,
0010
0001
0010
0001
0010
0100
0010
0100
1000
0100
1000
0100
0010
0001
1000
0100
,
0010
0001
0001
0100
0010
0001
0010
0100
0100
0001
0010
0100
0010
0001
0001
1000
,
0100
0010
0100
1000
1000
0001
0010
0100
1000
1000
0100
0100
0010
0010
1000
1000
,
0001
0001
0010
0010
0100
0100
1000
1000
0100
0100
0001
0001
0100
0100
0010
0010
,
1000
1000
0001
0001
0100
0100
0010
0010
1000
1000
0001
0001
0100
0100
0010
0010
,
1000
1000
0001
0001
0100
0100
0010
0010
1000
1000
0001
0001
0010
0010
0100
0100
,
1000
1000
0100
0100
0010
0010
0001
0001
0100
0100
0001
0001
0010
0010
0001
0001
,
0100
0100
1000
1000
0100
0100
1000
1000
0100
0100
0010
0010
0100
0100
0001
0001
,
0100
0100
1000
1000
0010
0010
0100
0100
0001
0001
1000
0101
1010
0101
1010
0100
,
1001
0010
0101
1000
0010
0101
1010
0101
1010
0001
1100
0011
1100
0011
1100
0011
,
0000
0000
2222
0000
0000
0000
0000
0000
0000
3333
0000
0000
0000
0000
0000
0000
;
